Nezha Birth of the Demon Child 2019 WEB-DL 1080p Download

Nezha Birth of the Demon Child 2019

◎Translated Name Ne Zha / Nezha: Birth of the Demon Child / Where is the world?
◎ film name
◎Year 2019
◎Place of Origin China Mainland
◎ Category Drama / Comedy / Animation / Fantasy
◎ Language Chinese Mandarin
◎ Release date 2019-07-13 (large-scale screening) / 2019-07-26 (Mainland China)
◎IMDb score 7.8/10 from 1530 users
◎IMDb link http://www.imdb.com/title/tt10627720
◎ Douban score 8.6/10 from 942664 users
◎ Douban link https://movie.douban.com/subject/26794435/
◎ length 110 minutes
◎Show Yu Yang
◎Editor’s Yu Yang / Yi Qiao Yi / Yunyun Wei
◎Maintain Yanting Lü
Joseph Joseph
Mo Han
Hao Chen
Qi Lü
Zhang Mingming Jiaming Zhang
Yang Wei Wei Yang

◎label Nezha | Animation | China | Myth | Growth | 2019 | Family |

◎Introduction

The heaven and earth aura breeds a huge energy mixed pearl, Yuan Shi Tian Zun will refine the mixed pearl into a pearl and a magic pill, Lingzhu will be a human being, and it will be useful when helping Zhou Wan; and the magic pill will give birth to the demon. It is a disaster. Yuan Shi Tian Zun started the day robbery spell, and after three years, the thunder will come and destroy the magic pill. Taiyi was ordered to take Lingzhu to the son of Li Jing’s son in Chentangguan. However, the difference between the Yin and the Magic Pills was actually lost. It should have been the hero of the Lingzhu, but it has become a big devil. The mischievous and miserable ones have a heroic heart. However, in the face of the misunderstanding of the magic pill and the coming of the coming thunder, where is it destined to become a demon? Where is he going?

General
Complete name                            : Nezha.Birth.of.the.Demon.Child.2019.WEB-DL.1080p.H264.AAC-Nv.mp4
Format                                   : MPEG-4
Format profile                           : Base Media
Codec ID                                 : isom (isom/iso2/avc1/mp41/letv)
File size                                : 2.41 GiB
Duration                                 : 1 h 49 min
Overall bit rate                         : 3 134 kb/s
Movie name                               : PontusSystem
Writing application                      : Lavf56.15.102

Video
ID                                       : 1
Format                                   : AVC
Format/Info                              : Advanced Video Codec
Format profile                           : High@L4
Format settings                          : CABAC / 4 Ref Frames
Format settings, CABAC                   : Yes
Format settings, RefFrames               : 4 frames
Codec ID                                 : avc1
Codec ID/Info                            : Advanced Video Coding
Duration                                 : 1 h 49 min
Bit rate                                 : 2 994 kb/s
Width                                    : 1 920 pixels
Height                                   : 800 pixels
Display aspect ratio                     : 2.40:1
Frame rate mode                          : Constant
Frame rate                               : 24.000 FPS
Color space                              : YUV
Chroma subsampling                       : 4:2:0
Bit depth                                : 8 bits
Scan type                                : Progressive
Bits/(Pixel*Frame)                       : 0.081
Stream size                              : 2.30 GiB (96%)
Writing library                          : Provided by www.letv.com  :: H.264/MPEG-4 AVC codec -V 1.6.08
Codec configuration box                  : avcC

Audio
ID                                       : 2
Format                                   : AAC LC
Format/Info                              : Advanced Audio Codec Low Complexity
Codec ID                                 : mp4a-40-2
Duration                                 : 1 h 49 min
Duration_LastFrame                       : -19 ms
Bit rate mode                            : Constant
Bit rate                                 : 128 kb/s
Channel(s)                               : 2 channels
Channel layout                           : L R
Sampling rate                            : 44.1 kHz
Frame rate                               : 43.066 FPS (1024 SPF)
Compression mode                         : Lossy
Stream size                              : 101 MiB (4%)
Default                                  : Yes
Alternate group                          : 1

Nezha Birth of the Demon Child 2019
Nezha Birth of the Demon Child 2019
Nezha Birth of the Demon Child 2019

File ParametersParameter Values
File name哪吒之魔童降世.Nezha.Birth.of.the.Demon.Child.
2019.HD1080P.国语中字.mp4
File Size2.41G
File formatmp4 File
Downloaded2k Link
Download ToolsDownload tools that support ed2k links (such as Thunder)
Download link Nezha.Birth.of.the.Demon.Child.2019.HD1080P
2.5 4 votes
Article Rating
赞(153) 打赏
未经允许不得转载:iemblog » Nezha Birth of the Demon Child 2019 WEB-DL 1080p Download
Subscribe
Notify of
guest
0 COMMENTS
Inline Feedbacks
View all comments
免责声明:本站大部分下载资源收集于网络,只做学习和交流使用,版权归原作者所有,请在下载后24小时之内自觉删除,若作商业用途,请购买正版,由于未及时购买和付费发生的侵权行为,与本站无关。本站发布的内容若侵犯到您的权益,请联系站长删除,我们将及时处理! Disclaimer: Most of the download resources on this site are collected on the Internet, and are only used for learning and communication. The copyright belongs to the original author. Please consciously delete within 24 hours after downloading. If you use it for commercial purposes, please purchase the original version. If the content posted on this site violates your rights, please contact us to delete it, and we will deal with it in time!

联系我们 Contact us

觉得文章有用就打赏一下文章作者

支付宝扫一扫打赏

微信扫一扫打赏

0
Would love your thoughts, please comment.x
()
x