Hello!树先生 2011 WEB-DL 1080p 下载

Hello Mr Tree

◎译  名 Mr.Tree
◎片  名 Hello!树先生
◎年  代 2011
◎产  地 中国大陆
◎类  别 剧情/喜剧
◎语  言 汉语普通话
◎上映日期 2011-11-04(中国大陆)
◎IMDb评分 6.4/10 from 118 users
◎IMDb链接 http://www.imdb.com/title/tt2043878/
◎豆瓣评分 7.2/10 from 43,117 users
◎豆瓣链接 https://movie.douban.com/subject/4135710/
◎片  长 93分钟
◎导  演 韩杰 Jie Han
◎主  演 王宝强 Baoqiang Wang
谭卓 Zhuo Tan
何洁 Jie He

◎简  介

 树(王宝强 饰)的父亲亲手杀死了树的大哥,后来父亲去世了,但两人影像却时常浮现在他脑海。在汽修铺工作中,他开始眼花,后来出了工伤,住进医院,护士苹苹(何洁 饰)给他拆线时,厂长将他辞退了。他的家面临拆迁,因为村长小舅子在这开矿,他感到十分无助,没事在村里闲逛,与朋友喝酒, 没钱就向弟弟伸手。某天,他碰到了朋友的表妹张小梅(谭卓 饰),一见钟情。但在相亲中,他发现小梅是个聋哑女孩。然而,这并没有阻隔他们的爱情。朋友结婚,他卖力地张罗,却无意中得罪了村长的小舅子,受到侮辱。一气之下,他来到城里找朋帮忙。在朋友的奥校打工时,他见证了朋友搞婚外情的事实。他通过短信跟小梅传情,最终决定与她结婚。然而,这场婚礼却进行得异常艰难……

◎获奖情况

 第14届上海国际电影节 (2011)
金爵奖 最佳影片(提名) 韩杰
金爵奖 评委会大奖
金爵奖 最佳导演 韩杰
电影频道传媒大奖 最佳影片(提名) 韩杰
电影频道传媒大奖 最佳新人导演 韩杰

 第12届华语电影传媒大奖 (2012)
最佳男主角(提名) 王宝强
最佳新导演(提名) 韩杰

 第2届豆瓣电影鑫像奖 (2012)
鑫豆单元 最佳影片(华语)(提名)
鑫豆单元 最佳男演员(华语)(提名) 王宝强

General
Unique ID : 249244538471289646900804753744276710265 (0xBB82C083D6720AC98BBFA2E09F976379)
Complete name : Hello.Mr.Tree.2011.WEB-DL.1080p.H264.AAC-npuer.mkv
Format : Matroska
Format version : Version 4 / Version 2
File size : 3.13 GiB
Duration : 1 h 27 min
Overall bit rate : 5 122 kb/s
Encoded date : UTC 2016-10-07 07:25:24
Writing application : mkvmerge v8.3.0 (‘Over the Horizon‘) 32bit
Writing library : libebml v1.3.1 + libmatroska v1.4.2

Video
ID : 1
Format : AVC
Format/Info : Advanced Video Codec
Format profile : Main@L4
Format settings, CABAC : Yes
Format settings, ReFrames : 4 frames
Codec ID : V_MPEG4/ISO/AVC
Duration : 1 h 27 min
Bit rate : 4 992 kb/s
Width : 1 920 pixels
Height : 816 pixels
Display aspect ratio : 2.35:1
Frame rate mode : Constant
Frame rate : 24.000 FPS
Color space : YUV
Chroma subsampling : 4:2:0
Bit depth : 8 bits
Scan type : Progressive
Bits/(Pixel*Frame) : 0.133
Stream size : 3.05 GiB (97%)
Writing library : Provided by x264 :: H.264/MPEG-4 AVC codec -V 1.6.07
Default : Yes
Forced : No
Color range : Limited
Color primaries : BT.709
Transfer characteristics : BT.709
Matrix coefficients : BT.709

Audio
ID : 2
Format : AAC
Format/Info : Advanced Audio Codec
Format profile : LC
Codec ID : A_AAC
Duration : 1 h 27 min
Bit rate : 128 kb/s
Channel(s) : 2 channels
Channel positions : Front: L R
Sampling rate : 44.1 kHz
Frame rate : 43.066 FPS (1024 spf)
Compression mode : Lossy
Stream size : 80.1 MiB (2%)
Language : English
Default : Yes
Forced : No

下载1

文件参数参数值
文件名Hello.Mr.Tree.2011.WEB-DL.1080p.H264.AAC-npuer.mkv
文件大小3.13GB
文件格式MKV文件
下载方式百度网盘
下载工具百度网盘客户端
下载链接 点击下载
提取码hdcq

下载2

文件参数参数值
文件名Hello!树先生.HD1280超清国语中英双字.迅雷之家.mp4
文件大小1.98GB
文件格式MP4文件
下载方式磁力链接
下载工具支持磁力链接的下载工具(如迅雷)
下载链接 点击下载
赞(1) 打赏
未经允许不得转载:爱易默博客 » Hello!树先生 2011 WEB-DL 1080p 下载

评论 抢沙发

  • 昵称 (必填)
  • 邮箱 (必填)
  • 网址
免责声明:本站大部分下载资源收集于网络,只做学习和交流使用,版权归原作者所有,请在下载后24小时之内自觉删除,若作商业用途,请购买正版,由于未及时购买和付费发生的侵权行为,与本站无关。本站发布的内容若侵犯到您的权益,请联系站长删除,我们将及时处理!

联系我们

觉得文章有用就打赏一下文章作者

支付宝扫一扫打赏

微信扫一扫打赏